GloDLS.to - Download Movies, TV, Games and Other Torrents Free RSS 2.0enGloDLS.to - Download Movies, TV, Games and Other Torrents FreeGloDLS.to - Download Movies, TV, Games and Other Torrents Free RSS Feedhttp://glodls.toCopyright GloDLS.to - Download Movies, TV, Games and Other Torrents FreeSat, 21 Oct 2017 18:20:55 +0100 Secret Superstar (2017) Hindi 720p Pre x264 AAC - Downloadhub http://glodls.to/torrent.php?id=2889956 http://glodls.to/torrent.php?id=2889956 Sat, 21 Oct 2017 17:20:47 +0100 Movies
[img]https://extraimage.net/images/2017/05/10/0f98922bd359e7eaf5f6ad12fc86c758.png[/img]

[img]https://www.hon3yhd.com/bitbucket/GPSOFT_BITCOIN.png[/img]:

[b]1Aaj6CQxdXsirv1w93EwDdBSJJHDVTisrt[/b]

[code][b]MOVIE INFO:
http://www.imdb.com/title/tt6108090/
[FORMAT]:…………………….[ Matroska
[CODEC]:………………[ x264
[GENRE]:……………………[ Drama, Family, Music
[FILE SIZE]:……………………[ 1128MB
[RESOLUTION]:……………….[ 1280x544
[LANGUAGE]:…………………[ Hindi
[SUBTITLES]:………………..[ No
[ENCODER]:…………..[ Downloadhub
[SOURCE]:…………………..[ DTone Thanks[/b][/code]

[Medai Info]: [url]https://linkshub.club/index.php?ID=58765327936500-paste[/url]

[img]https://www.jiopic.com/images/2017/10/22/S3CR3tSUP3RStaRPRE720-Downloadhub.ws_s.jpg[/img]

[img]https://www.hon3yhd.com/bitbucket/GPSOFT_BITCOIN.png[/img]:

[b]1Aaj6CQxdXsirv1w93EwDdBSJJHDVTisrt[/b][/center] ]]>
ESET NOD32 Antivirus & Smart Security 10 1 219 1+ Pre-Cracked http://glodls.to/torrent.php?id=2889955 http://glodls.to/torrent.php?id=2889955 Sat, 21 Oct 2017 17:18:39 +0100 Apps
For more Latest Tutorials and Win-Mac Softwares don't forget to visit crackzsoft.com



Software version: 10.1.219.1
Language: Russian + English
Platform: x86 / x64
Developer: ESET
Medicine: All cured
Author of assembly: KpoJIuK

System requirements:

• Microsoft® Windows® XP (SP3)
· 600 MHz
· 128MB RAM of system memory
· 320 MB available space
· Super VGA (800 x 600) )

• Microsoft® Windows® 10, 8.1, 8, 7, Vista, Home Server
· 1 GHz 32-bit (x86) / 64-bit (x64)
· 512MB RAM of system memory
· 320 MB available space
· Super VGA (800 x 600)

ESET NOD32 Smart Security- A new version of the complex antivirus NOD32 with cloud technology ESET Live Grid. Solution "all-in-one" with multi-level protection. Protect your computer or laptop from loss or theft with the functionality of the new Anti-Theft component. The Anti-Theft feature allows you to locate and recover a lost or stolen laptop or computer.
After you mark on the ESET Anti-Theft web portal that the computer is lost or stolen, the device is automatically monitored and allows you to monitor the position of the laptop or computer on the map using Wi-Fi. When a lost or stolen device connects to the network, you have access to all the information gathered on the Anti-Theft portal.

Antivirus NOD32 - A new anti-virus solution from ESET, offering improved heuristic analysis of unknown threats, ESET's "cloud" technology for determining the reputation of files and an updated interface. It includes the ability to automatically scan a computer during its idle time, scan files directly at boot time, and the ability to undo installed updates.

The main components of ESET NOD32 Smart Security

• Computer protection
· Antivirus and antispyware. Protection of the file system in real time.
· Proactive HIPS protection: the intrusion prevention system on the node monitors the events in the operating system and responds to them in accordance with the existing set of rules.
· Game Mode.

• Protection on the Internet
· Protection of Internet access: Web protection is scanned for the presence of malicious programs and Web sites all traffic over HTTP and HTTPS.
· Email client protection: provides control over data exchange via POP3 and IMAP protocols.
· Protection from spam: unwanted messages are scanned, that is, spam.
· Phishing Protection: provides the filtration of websites suspected of distributing content that is intended to be manipulated by a user in order to obtain confidential information from it.

• Network protection
• Personal firewall
• Protection against network attacks (IDS)
• Protection against botnets


Main Features

• Protecting bank payments
• When you use Internet banking or online payment websites, a secure browser can protect your sensitive data. It provides additional protection for banking transactions, credit card numbers and other confidential information.

• Find and return the stolen laptop with the Anti-Terror function
· Automatically monitor lost devices.
· Displays the position of the stolen computer on the map based on Wi-Fi networks within their range.
· Allows you to see thieves using the built-in camera.
· Collecting screen shots of a lost laptop.

• Personal firewall - your connections are under control
· Prevents unauthorized use of your personal data.
· Warns when connecting to unknown networks and suggests switching to enhanced protection mode.
· Makes the computer invisible to other devices connected to the same network.

• Work and play without slowing down.
· Elimination of all types of threats, including viruses, rootkits, Internet worms and spyware.
· Acceleration of verification due to "cloud" scanning.
· Blocks CD, DVD, USB and other storage media and devices.
· Low impact on system performance.

• Secure Internet for children
· Choose one of the predefined categories depending on the age of your children.
· Allows you to select one of the predefined profiles - child, teenager and parent.
· Allows you to set a password to protect the settings from changes and unauthorized deletion.


New in ESET NOD32 Smart Security 10 (2017)

• ESET NOD32 Smart Security version 10 includes the following enhancements:
· Home network protection: protect your computers from incoming network threats.
· Protection of the web camera: monitoring of processes and applications that access the camera connected to the computer.
· Protection against script-based attacks: proactive protection against dynamic attacks based on scenarios and unusual attack vectors.
· High performance and little impact on the system: version 10 provides protection against new types of threats and at the same time makes the most of system resources, allowing you to enjoy the performance of your computer.
· Compatible with Windows 10: ESET fully supports Microsoft Windows 10.


The main components of ESET NOD32 Antivirus

• Computer
· Real-time file system
protection · Document security ·
Device monitoring
· Proactive HIPS protection
· Game mode
· Anti-Stealth (rootkit detection)

· Internet and email
· Internet access protection · Email
client
protection · Phishing protection


Main Features

• Intelligent mode "Smart mode" for HIPS: is located between the automatic and interactive modes. Is able to detect suspicious activity and malicious processes in the system.
• Exploit Blocker: an additional level of protection for vulnerable applications (for example, browsers, e-mail clients, PDF viewers). It supports Java and helps to improve detection and protection against such vulnerabilities.
• Optional memory scanning module. The HIPS module includes an additional memory scanning module that scans running applications when their state changes to detect possible suspicious or malicious actions. Works in conjunction with the Exploit Blocker to strengthen the protection against malicious programs designed to bypass detection of antivirus products through the use of obfuscation and / or encryption.
• ESET SysRescue Live: A new generation of ESET SysRescue utility that allows you to create a boot disk in the form of a USB flash drive or CD / DVD drive with the ability to scan and clean the system from threats even if Windows can not boot.
• Protection from vulnerabilities: additional advanced filtering capabilities to detect various types of attacks and vulnerabilities that can be used against the computer.
• Device monitoring. This module replaced the removable media protection module, which was available in versions 5 and 6. It allows you to scan, block or configure advanced filters and permissions, and also choose how to access the device and use it for the user.
• Improved protection against phishing. Added blocking of fraudulent sites. Users can report suspicious sites and sites that are mistakenly qualified as fraudulent.


New in version 10.1.219.1

Improved support for people with impaired vision.
Internal improvements and fixes (for example, the option "Pause protection" has returned to the antivirus menu in the tray).


Assembly Features and Changes

• Type: installation [x86, x64]
• Languages: Russian, english
• Activation: TNod User & Password Finder
• Optional: import EAV [ESS] .xml

Changes in the updated version (18.10.2017)
• TNOD updated to version 1.6.3.1 ]]>
Evil.Things.S01E05.HDTV.x264-W4F[ettv] http://glodls.to/torrent.php?id=2889954 http://glodls.to/torrent.php?id=2889954 Sat, 21 Oct 2017 17:17:41 +0100 TV Et TV Shows


Evil.Things.S01E05.HDTV.x264-W4F


[Format]: Matroska
[Duration]: 41mn 31s
[Resolution]: 720 x 404 pixels
[Display aspect ratio]: 16:9
[Frame rate mode]: Constant
[Frame rate]: 23.976 fps


[color=green][b]#ettv -> To avoid fakes, ALWAYS check that the torrent was added by ettv[/b][/color]



[url]https://www.ettv.tv[/url]

[color=green][b]To keep us going Support us by donating Bitcoin: 3MDamEmgKepqagtQe9eEdQ3NCrWEWjhoL5[/b][/color]

[b]Screens...[/b]
[url=https://extraimage.net/image/TYbY][img]https://extraimage.net/images/2017/10/21/5a5c6f97f6f555c6aadb1082736a356e.th.jpg[/img][/url] ]]>
[DadCrush] Audrey Royal, Moka Mora - Stepsisters Love To Share (22 10 2017) rq mp4 http://glodls.to/torrent.php?id=2889953 http://glodls.to/torrent.php?id=2889953 Sat, 21 Oct 2017 17:16:39 +0100 Adult XXX Audio: aac, 48000 Hz, 2 channels, s16, 141 kb/s (eng)
Video: h264, yuv420p, 640x360, 849 kb/s, 29,97 fps(r) (und)

http://imgjazz.com/img-59eb80eb74ec0.html

]]>
Evil.Things.S01E04.HDTV.x264-W4F[ettv] http://glodls.to/torrent.php?id=2889952 http://glodls.to/torrent.php?id=2889952 Sat, 21 Oct 2017 17:13:58 +0100 TV Et TV Shows


Evil.Things.S01E04.HDTV.x264-W4F


[Format]: Matroska
[Duration]: 41mn 31s
[Resolution]: 720 x 404 pixels
[Display aspect ratio]: 16:9
[Frame rate mode]: Constant
[Frame rate]: 23.976 fps


[color=green][b]#ettv -> To avoid fakes, ALWAYS check that the torrent was added by ettv[/b][/color]



[url]https://www.ettv.tv[/url]

[color=green][b]To keep us going Support us by donating Bitcoin: 3MDamEmgKepqagtQe9eEdQ3NCrWEWjhoL5[/b][/color]

[b]Screens...[/b]
[url=https://extraimage.net/image/TYb4][img]https://extraimage.net/images/2017/10/21/f52333b48f73e74fa58641e0ec23c397.th.jpg[/img][/url] ]]>
LegalPorno.16.10.19.Susan.Ayn.XXX.1080p.MP4-CUNTENT http://glodls.to/torrent.php?id=2889950 http://glodls.to/torrent.php?id=2889950 Sat, 21 Oct 2017 17:13:48 +0100 Adult XXX
{Duration} : 36 min 55 s
{Format} : MPEG-4
{Resolution} : 1920 x 1080 pixels
{Aspect Ratio} : 16:9
{Frame Rate} : 50.000 fps

[b]Thumbnails : -[/b]


[URL=https://www.sizzlingclicks.com/image/i0oGu][IMG]https://www.sizzlingclicks.com/images/2017/10/21/i0oGu.th.jpg[/IMG][/URL]
[b][URL]https://www.sizzlingclicks.com/image/i0oGu[/URL][/b]
[b][URL]https://www.sizzlingclicks.com/image/i05I2[/URL][/b]
[b][URL]https://www.sizzlingclicks.com/image/i0FYR[/URL][/b]
[b][URL]https://www.sizzlingclicks.com/image/i0LvE[/URL][/b] ]]>
Directory Monitor Pro 2 12 0 4 + Patch http://glodls.to/torrent.php?id=2889945 http://glodls.to/torrent.php?id=2889945 Sat, 21 Oct 2017 17:09:39 +0100 Apps
You can use Directory Monitor for the surveillance of certain directories and it will notify you of file changes, deletions, modifications, and new files in real-time. You can optionally execute an application when a change occurs.
]]>
LegalPorno.16.10.19.Susan.Ayn.XXX.1080p.MP4-CUNTENT[N1C] http://glodls.to/torrent.php?id=2889944 http://glodls.to/torrent.php?id=2889944 Sat, 21 Oct 2017 17:09:16 +0100 Adult XXX LegalPorno.16.10.19.Susan.Ayn.XXX.1080p.MP4-CUNTENT


[Format]: MPEG-4
[Duration]: 36mn 55s
[Resolution]: 1 920 x 1 080 pixels
[Display aspect ratio]: 16:9
[Frame rate mode]: Constant
[Frame rate]: 50.000 fps


[color=green][b]#N1C -> To avoid fakes, ALWAYS check that the torrent was added by NO1CARES[/b][/color]




[color=green][b]Help us by donating with Bitcoin: 1Pgwp16gmLHmPzgjJLxZnMw7YeqiUekUoe[/b][/color]

[b]Screens...[/b]
[url]http://HotImage.uk/img-59eb7f00592a1.html[/url]
[url]http://HotImage.uk/img-59eb7f006e191.html[/url]
[url]http://HotImage.uk/img-59eb7f007ca7f.html[/url]
[url]http://HotImage.uk/img-59eb7f0088de7.html[/url] ]]>
Cimaware OfficeFIX Professional 6 121 + Crack http://glodls.to/torrent.php?id=2889943 http://glodls.to/torrent.php?id=2889943 Sat, 21 Oct 2017 17:06:38 +0100 Apps
OfficeFIX includes three or all four Office file recovery programs. Ordering OfficeFIX your data will be safe and will save you more than 40% in the cost of the products. Fix Microsoft Office files in minutes.

OfficeFIX bundles a set of tools intended for repairing corrupted Office documents and retrieving their content. The suite includes dedicated applications for recovering Word documents, Excel spreadsheets, Outlook mail files and Access databases.
The main interface of OfficeFIX provides one-click access to all the programs from within a single window. Each of the four applications rely on a user-friendly wizard, ready to assist you in carrying out a recovery task. ]]>
Antiques.Road.Trip.S15E18.720p.HDTV.x264-DOCERE http://glodls.to/torrent.php?id=2889942 http://glodls.to/torrent.php?id=2889942 Sat, 21 Oct 2017 17:05:37 +0100 TV
[url=https://www.sparrowpics.com/image/kbFon][img]https://www.sparrowpics.com/images/2017/07/04/kbFon.png[/img][/url]

[b]Complete name : antiques.road.trip.s15e18.720p.hdtv-docere.mkv
Format : Matroska
Format version : Version 4 / Version 2
File size : 1 017 MiB
Duration : 43 min 44 s
Overall bit rate : 3 251 kb/s
Encoded date : UTC 2017-10-21 16:57:49
Writing application : mkvmerge v9.6.0 ('Slave To Your Mind') 64bit
Writing library : libebml v1.3.4 + libmatroska v1.4.5

Video
ID : 1
Format : AVC
Format/Info : Advanced Video Codec
Format profile : High@L4.1
Format settings, CABAC : Yes
Format settings, ReFrames : 5 frames
Format settings, GOP : M=4, N=40
Codec ID : V_MPEG4/ISO/AVC
Duration : 43 min 44 s
Bit rate : 3 056 kb/s
Width : 1 280 pixels
Height : 720 pixels
Display aspect ratio : 16:9
Frame rate mode : Constant
Frame rate : 50.000 FPS
Color space : YUV
Chroma subsampling : 4:2:0
Bit depth : 8 bits
Scan type : Progressive
Bits/(Pixel*Frame) : 0.066
Stream size : 956 MiB (94%)
Writing library : x264 core 152 r2851 ba24899
Encoding settings : cabac=1 / ref=5 / deblock=1:0:0 / analyse=0x3:0x113 / me=hex / subme=8 / psy=1 / psy_rd=1.00:0.00 / mixed_ref=1 / me_range=16 / chroma_me=1 / trellis=2 / 8x8dct=1 / cqm=0 / deadzone=21,11 / fast_pskip=1 / chroma_qp_offset=-2 / threads=6 / lookahead_threads=1 / sliced_threads=0 / nr=0 / decimate=1 / interlaced=0 / bluray_compat=0 / stitchable=1 / constrained_intra=0 / bframes=3 / b_pyramid=2 / b_adapt=1 / b_bias=0 / direct=3 / weightb=1 / open_gop=0 / weightp=2 / keyint=250 / keyint_min=25 / scenecut=40 / intra_refresh=0 / rc_lookahead=50 / rc=crf / mbtree=1 / crf=21.0 / qcomp=0.60 / qpmin=0 / qpmax=69 / qpstep=4 / ip_ratio=1.40 / aq=1:1.00
Default : Yes
Forced : No
Color range : Limited
Color primaries : BT.709
Transfer characteristics : BT.709
Matrix coefficients : BT.709

Audio
ID : 2
Format : AC-3
Format/Info : Audio Coding 3
Format settings, Endianness : Big
Codec ID : A_AC3
Duration : 43 min 44 s
Bit rate mode : Constant
Bit rate : 192 kb/s
Channel(s) : 2 channels
Channel positions : Front: L R
Sampling rate : 48.0 kHz
Frame rate : 31.250 FPS (1536 spf)
Bit depth : 16 bits
Compression mode : Lossy
Stream size : 60.1 MiB (6%)
Service kind : Complete Main
Default : Yes
Forced : No[/b]

[url=https://www.sparrowpics.com/image/kbJ5y][img]https://www.sparrowpics.com/images/2017/07/04/kbJ5y.png[/img][/url]

[URL=https://tv.sparrowpics.com/image/Fa0uJ][IMG]https://tv.sparrowpics.com/images/2017/10/21/Fa0uJ.th.jpg[/IMG][/URL]

[URL=https://tv.sparrowpics.com/image/FaX7G][b]Click To View Screenshot[/b][/URL]

[URL=https://tv.sparrowpics.com/image/Fazmc][b]Click To View Screenshot[/b][/URL]

[URL=https://tv.sparrowpics.com/image/Fa5RQ][b]Click To View Screenshot[/b][/URL][/center] ]]>
Capture One Pro 10 2 0 74 Pre Cracked http://glodls.to/torrent.php?id=2889941 http://glodls.to/torrent.php?id=2889941 Sat, 21 Oct 2017 17:02:03 +0100 Apps
Capture One Pro 10 - The standout choice in image editing software! Designed with the world's most demanding photographers, Capture One Pro is the Professionals' choice in imaging software. ]]>
Face Value S01E04 Kym Whitley v Donnell Rawlings 720p HDTV x264-CRiMSON http://glodls.to/torrent.php?id=2889895 http://glodls.to/torrent.php?id=2889895 Sat, 21 Oct 2017 17:00:11 +0100 TV http://www.tvrage.com/schedule.php?show_yesterday=1. ]]> Face Value S01E04 Kym Whitley v Donnell Rawlings HDTV x264-CRiMSON http://glodls.to/torrent.php?id=2889894 http://glodls.to/torrent.php?id=2889894 Sat, 21 Oct 2017 17:00:10 +0100 TV http://www.tvrage.com/schedule.php?show_yesterday=1. ]]> Dont Be Tardy S06E05 How to Baseball 720p HDTV x264-CRiMSON http://glodls.to/torrent.php?id=2889893 http://glodls.to/torrent.php?id=2889893 Sat, 21 Oct 2017 17:00:08 +0100 TV http://www.tvrage.com/schedule.php?show_yesterday=1. ]]> Dont Be Tardy S06E05 How to Baseball HDTV x264-CRiMSON http://glodls.to/torrent.php?id=2889892 http://glodls.to/torrent.php?id=2889892 Sat, 21 Oct 2017 17:00:07 +0100 TV http://www.tvrage.com/schedule.php?show_yesterday=1. ]]> BBC Our World 2017 Songbirds for Sale 720p HDTV x264 AAC mkv http://glodls.to/torrent.php?id=2889891 http://glodls.to/torrent.php?id=2889891 Sat, 21 Oct 2017 17:00:04 +0100 TV http://www.tvrage.com/schedule.php?show_yesterday=1. ]]> Audials One 2018 1 25300 0 + Key http://glodls.to/torrent.php?id=2889890 http://glodls.to/torrent.php?id=2889890 Sat, 21 Oct 2017 16:58:40 +0100 Apps
Audials One 2018 - the leader of online stores for movie, music, TV, and DVDs. It will help you find, record, download, convert and enjoy free and legal music, movies, video and radio round the clock. Audials One may give you more music than you could ever listen to and more videos than you could ever watch, and all for free. If you want to get the most entertainment out of the Internet and all media, you will find the perfect fit in Audials One. ]]>
Fear.1996.720p.BluRay.x264-x0r http://glodls.to/torrent.php?id=2889889 http://glodls.to/torrent.php?id=2889889 Sat, 21 Oct 2017 16:57:47 +0100 Movies
[b]ImDb: [URL]http://www.imdb.com/title/tt0255320[/URL][/b]

[url=https://www.sparrowpics.com/image/kbFon][img]https://www.sparrowpics.com/images/2017/07/04/kbFon.png[/img][/url]

[b]Complete name : Fear.1996.720p.BluRay.x264-x0r.mkv
Format : Matroska
Format version : Version 4 / Version 2
File size : 2.03 GiB
Duration : 1 h 36 min
Overall bit rate : 3 008 kb/s
Movie name : Fear.1996.720p.BluRay.x264-x0r
Encoded date : UTC 2017-10-21 16:25:30
Writing application : mkvmerge v7.7.0 ('Six Voices') 64bit built on Mar 1 2015 01:50:05
Writing library : libebml v1.3.1 + libmatroska v1.4.2

Video
ID : 1
Format : AVC
Format/Info : Advanced Video Codec
Format profile : High@L4
Format settings, CABAC : Yes
Format settings, ReFrames : 9 frames
Codec ID : V_MPEG4/ISO/AVC
Duration : 1 h 36 min
Bit rate : 2 560 kb/s
Width : 1 280 pixels
Height : 720 pixels
Display aspect ratio : 16:9
Frame rate mode : Constant
Frame rate : 23.976 FPS
Color space : YUV
Chroma subsampling : 4:2:0
Bit depth : 8 bits
Scan type : Progressive
Bits/(Pixel*Frame) : 0.116
Stream size : 1.73 GiB (85%)
Writing library : x264 core 130 r2273 b3065e6
Encoding settings : cabac=1 / ref=9 / deblock=1:-2:-2 / analyse=0x3:0x133 / me=umh / subme=10 / psy=1 / psy_rd=1.00:0.25 / mixed_ref=0 / me_range=32 / chroma_me=1 / trellis=2 / 8x8dct=1 / cqm=0 / deadzone=6,6 / fast_pskip=0 / chroma_qp_offset=-4 / threads=12 / lookahead_threads=1 / sliced_threads=0 / nr=0 / decimate=1 / interlaced=0 / bluray_compat=0 / constrained_intra=0 / bframes=5 / b_pyramid=2 / b_adapt=2 / b_bias=0 / direct=3 / weightb=1 / open_gop=0 / weightp=2 / keyint=240 / keyint_min=24 / scenecut=40 / intra_refresh=0 / rc_lookahead=60 / rc=2pass / mbtree=1 / bitrate=2560 / ratetol=1.0 / qcomp=0.00 / qpmin=0 / qpmax=69 / qpstep=4 / cplxblur=20.0 / qblur=0.5 / vbv_maxrate=20000 / vbv_bufsize=25000 / nal_hrd=none / ip_ratio=1.10 / aq=1:0.90
Language : English
Default : Yes
Forced : No
Color range : Limited
Color primaries : BT.709
Transfer characteristics : BT.709
Matrix coefficients : BT.709

Audio
ID : 2
Format : AC-3
Format/Info : Audio Coding 3
Format settings, Endianness : Big
Codec ID : A_AC3
Duration : 1 h 36 min
Bit rate mode : Constant
Bit rate : 448 kb/s
Channel(s) : 6 channels
Channel positions : Front: L C R, Side: L R, LFE
Sampling rate : 48.0 kHz
Frame rate : 31.250 FPS (1536 spf)
Bit depth : 16 bits
Compression mode : Lossy
Stream size : 310 MiB (15%)
Title : Surround
Language : English
Service kind : Complete Main
Default : Yes
Forced : No

Text
ID : 3
Format : UTF-8
Codec ID : S_TEXT/UTF8
Codec ID/Info : UTF-8 Plain Text
Duration : 1 h 30 min
Bit rate : 53 b/s
Count of elements : 1212
Stream size : 35.7 KiB (0%)
Language : English
Default : Yes
Forced : No

Menu
00:00:00.000 : en:Chapter 1
00:04:48.722 : en:Chapter 2
00:11:06.140 : en:Chapter 3
00:15:12.053 : en:Chapter 4
00:19:51.832 : en:Chapter 5
00:21:52.661 : en:Chapter 6
00:30:55.829 : en:Chapter 7
00:35:03.451 : en:Chapter 8
00:39:53.116 : en:Chapter 9
00:48:01.312 : en:Chapter 10
00:52:12.646 : en:Chapter 11
00:59:25.120 : en:Chapter 12
01:05:06.878 : en:Chapter 13
01:09:29.307 : en:Chapter 14
01:15:18.239 : en:Chapter 15
01:22:02.309 : en:Chapter 16
01:26:38.293 : en:Chapter 17
01:32:29.519 : en:Chapter 18[/b]

[url=https://www.sparrowpics.com/image/kbJ5y][img]https://www.sparrowpics.com/images/2017/07/04/kbJ5y.png[/img][/url]

[URL=https://www.sparrowpics.com/image/2kK6y][IMG]https://www.sparrowpics.com/images/2017/10/21/2kK6y.th.jpg[/IMG][/URL]

[URL=https://www.sparrowpics.com/image/2kk8J][b]Click To View Screenshot[/b][/URL]

[URL=https://www.sparrowpics.com/image/2km2c][b]Click To View Screenshot[/b][/URL]

[URL=https://www.sparrowpics.com/image/2k9s6][b]Click To View Screenshot[/b][/URL][/center] ]]>
[AnimeRG] Boruto - Naruto Next Generations - 29 [Multi-Sub] [HEVC] [x265] [720p] [pseudo] http://glodls.to/torrent.php?id=2889887 http://glodls.to/torrent.php?id=2889887 Sat, 21 Oct 2017 16:55:34 +0100 Anime
<br />
Format/Info : HEVC / x265<br />
Resolution :1280x720<br />
Frame Rate : 23.976 fps<br />
<br />
[u][b][size=4]..::Audio Specs::..[/size][/b][/u]<br />
<br />
Format/Info : Advanced Audio Codec<br />
Channels : 2 channels<br />
Sample Rate : 48KHz<br />
Language : Japanese<br />
<br />
[u][b][size=4]..::Subtitles::..[/size][/b][/u]<br />
<br />
Language : English, Arabic, German, Italian, Portuguese, Spanish (Castilian), Spanish (Latin America)<br />
Type : Soft Coded<br />
Format : ASS / SRT<br />
<br />
[u][b][size=4]..::Source::..[/size][/b][/u]<br />
<br />
Web-Rip: Crunchyroll (408 MB)<br />
[/center] ]]>
Anthemion Jutoh 2 67 + keygen http://glodls.to/torrent.php?id=2889886 http://glodls.to/torrent.php?id=2889886 Sat, 21 Oct 2017 16:55:17 +0100 Apps
Anthemion Jutoh 2.67 + Portable Anthemion Jutoh is a professional program that will allow you to create an e-book in a variety of formats, after which you can sell it on special websites. To create a book, you can use all the necessary functions for this, the developers have well tried and thought out every little thing. You can make a cover by yourself or choose a ready one and edit it from existing templates. Unfortunately there is no Russian support, and I do not think that among you there are those who want to create a book, but still it's my business to introduce you to the software, good luck!

Developer: Anthemion Software Ltd
License: ShareWare - for you free of charge
Language: English - Russian version and Russifier not available
Size: 90 MB
OS: Windows ]]>
[AnimeRG] Boruto - Naruto Next Generations - 29 [Multi-Sub] [HEVC] [x265] [1080p] [pseudo] http://glodls.to/torrent.php?id=2889884 http://glodls.to/torrent.php?id=2889884 Sat, 21 Oct 2017 16:54:48 +0100 Anime
<br />
Format/Info : HEVC / x265<br />
Resolution :1920x1080<br />
Frame Rate : 23.976 fps<br />
<br />
[u][b][size=4]..::Audio Specs::..[/size][/b][/u]<br />
<br />
Format/Info : Advanced Audio Codec<br />
Channels : 2 channels<br />
Sample Rate : 48KHz<br />
Language : Japanese<br />
<br />
[u][b][size=4]..::Subtitles::..[/size][/b][/u]<br />
<br />
Language : English, Arabic, German, Italian, Portuguese, Spanish (Castilian), Spanish (Latin America)<br />
Type : Soft Coded<br />
Format : ASS / SRT<br />
<br />
[u][b][size=4]..::Source::..[/size][/b][/u]<br />
<br />
Web-Rip: Crunchyroll (1.07 GB)<br />
[/center] ]]>
[FAKings]Nuria - La Milf Nuria disfrutara para ella sola el pollon del joven JotaDe y el de sus enormes Tetas http://glodls.to/torrent.php?id=2889881 http://glodls.to/torrent.php?id=2889881 Sat, 21 Oct 2017 16:52:38 +0100 Adult XXX [center][URL=http://imageteam.org/img-59eb779215040.html][IMG]http://imageteam.org/upload/small/2017/10/21/59eb779215006.jpeg[/IMG][/URL]
[size=4]

Nuria - La Milf Nuria disfrutara para ella sola el pollon del joven JotaDe y el de sus enormes Tetas
Category: MILF, Busty, All Sex
File size: 923 MB
Duration: 37:46


[b]SCREENS:[/b]

[url]http://imageteam.org/img-59eb77a47e8e9.html[/url]
[url]https://xeimg.yt/img-59eb77ca338e0.html[/url]

[b]SHOOT:[/b]
[url]http://imagedecode.com/img-59eb7b1427950.html[/url]
[/size]
[/center] ]]>
Advanced CSV Converter + patch http://glodls.to/torrent.php?id=2889878 http://glodls.to/torrent.php?id=2889878 Sat, 21 Oct 2017 16:50:19 +0100 Apps
Advanced CSV Converter allows you convert CSV files to DBF, Excel spreadsheet (XLS, XLSX), TXT, SQL, XML, Fixed Text and RTF.
Working with the program takes as little as opening a file or selecting a folder with CSV files, choosing conversion settings and clicking the “Convert” button. The, the application takes the given CSV file or files and automatically converts data fields from them to the specified format.

Key Features
Surely, there are dozens of CSV conversion tools around, but only Advanced CSV Converter delivers astonishing performance and accuracy of conversion in a user-friendly and time-efficient way. Here is what you get:

Convert CSV to 10+ formats.
Advanced CSV Converter lets you convert a CSV file to DBF (dBase III/IV, Visual Foxpro), Excel files:XLS,XLSX, SQL, TXT, Fixed Width Text, HTML, PRG, XML, RTF, TSV.

Set Filters with Advanced CSV Converter
Often, you don’t need all of the records exported from CSV. To filter out what should be exported and what not, Advanced CSV Converter features customizable filters to perform certain queries based on the given sample, or set a conversion filter.

Save hours thanks to multi-CSV conversion
What if you have hundreds of CSV files? Would it not be madness to convert them manually? Take Advanced CSV Converter instead, and it will deal with all of them in just one go. Simply specify the folder where those CSV files are.


How to Install:
1). Instructions are included in ReadMe.txt if needed.
2). Thats all, Done & enjoy. ]]>
Euromutt.17.10.20.Clarise.And.Tommy.Anal.XXX.720p.MP4-CUNTENT[N1C] http://glodls.to/torrent.php?id=2889876 http://glodls.to/torrent.php?id=2889876 Sat, 21 Oct 2017 16:49:18 +0100 Adult XXX Euromutt.17.10.20.Clarise.And.Tommy.Anal.XXX.720p.MP4-CUNTENT


[Format]: MPEG-4
[Duration]: 29mn 33s
[Resolution]: 1 280 x 720 pixels
[Display aspect ratio]: 16:9
[Frame rate mode]: Constant
[Frame rate]: 25.000 fps


[color=green][b]#N1C -> To avoid fakes, ALWAYS check that the torrent was added by NO1CARES[/b][/color]




[color=green][b]Help us by donating with Bitcoin: 1Pgwp16gmLHmPzgjJLxZnMw7YeqiUekUoe[/b][/color]

[b]Screens...[/b]
[url]http://HotImage.uk/img-59eb7a46d8fed.html[/url]
[url]http://HotImage.uk/img-59eb7a46e4238.html[/url]
[url]http://HotImage.uk/img-59eb7a46ecc72.html[/url]
[url]http://HotImage.uk/img-59eb7a47007cc.html[/url] ]]>
Acronis True Image 2018 Build 9850 + patch http://glodls.to/torrent.php?id=2889875 http://glodls.to/torrent.php?id=2889875 Sat, 21 Oct 2017 16:46:54 +0100 Apps
I used this program more than once and decided to share it with you. In general, having decided to download Acronis True Image Home from our project, you can create a complete copy of your operating system, and then it will be easily restored, that is, you will not need to establish all the necessary applications, you will not have to transfer photos, just unpacked a copy and get a working version of Windows, very convenient and fast.
Acronis True Image Home is also useful for users who want to keep the system safe, because if something happens, you can always get everything back on track, and make at least every day a copy, no one forbids you. Copies will be created entirely of everything that is in your systems, movies, photos, e-mail, correspondence in ICQ, boot data and so on, there is no point in enumerating everything.
Acronis True Image Home is a very smart program, you just need to save the copy in the right place, as it will automatically make a copy on the schedule at the right time and in this place, you do not have to worry about whether you have a fresh copy or not . Among other things, the search system has been improved, it is now easy to find the files you need in the archive and to view them quickly. Acronis True Image Home, in addition to its archiving format, can now work with more familiar ZIP formats, which for many may seem like a big plus. I think many have noticed that the user interface is also transformed into a cavity, it will be more convenient and pleasant to work with it.

Developer: Acronis Inc
License: ShareWare
Language: English version + English
Size: 504 + 820 MB
OS: Windows ]]>
Euromutt.17.10.20.Clarise.And.Tommy.Anal.XXX.720p.MP4-CUNTENT http://glodls.to/torrent.php?id=2889874 http://glodls.to/torrent.php?id=2889874 Sat, 21 Oct 2017 16:44:48 +0100 Adult XXX
{Duration} : 29 min 33 s
{Format} : MPEG-4
{Resolution} : 1280 x 720 pixels
{Aspect Ratio} : 16:9
{Frame Rate} : 25.000 fps

[b]Thumbnails : -[/b]


[URL=https://www.sizzlingclicks.com/image/i0HKb][IMG]https://www.sizzlingclicks.com/images/2017/10/21/i0HKb.th.jpg[/IMG][/URL]
[b][URL]https://www.sizzlingclicks.com/image/i0HKb[/URL][/b]
[b][URL]https://www.sizzlingclicks.com/image/i0M4C[/URL][/b]
[b][URL]https://www.sizzlingclicks.com/image/i0Yi0[/URL][/b]
[b][URL]https://www.sizzlingclicks.com/image/i0lLK[/URL][/b] ]]>
[NudeinFrance/HD]Enora Hardesya - Amazing petite redhead student slut gets deep sodomized http://glodls.to/torrent.php?id=2889873 http://glodls.to/torrent.php?id=2889873 Sat, 21 Oct 2017 16:30:09 +0100 Adult XXX [center][URL=https://img.yt/img-59eb744cd2124.html][IMG]https://img.yt/upload/small/2017/10/21/59eb744cd20e7.jpeg[/IMG][/URL]
[size=4]

Enora Hardesya - Amazing petite redhead student slut gets deep sodomized
Category: Amateurs, Oral, All sex, Anal, France
File size: 614 MB
Duration: 00:39:16


[b]SCREENS:[/b]

[url]https://img.yt/img-59eb745ba6293.html[/url]
[url]http://imgclick.net/cuuu2fa0diw5/Enora_Hardesya_v2.jpeg.html[/url]

[b]SHOOT:[/b]
[url]http://imageteam.org/img-59eb75e900e11.html[/url]
[/size]
[/center] ]]>
Dont.Be.Tardy.S06E05.How.to.Baseball.HDTV.x264-CRiMSON[ettv] http://glodls.to/torrent.php?id=2889872 http://glodls.to/torrent.php?id=2889872 Sat, 21 Oct 2017 16:29:23 +0100 TV Et TV Shows


Dont.Be.Tardy.S06E05.How.to.Baseball.HDTV.x264-CRiMSON


[Format]: Matroska
[Duration]: 21mn 4s
[Resolution]: 720 x 404 pixels
[Display aspect ratio]: 16:9
[Frame rate mode]: Constant
[Frame rate]: 23.976 fps


[color=green][b]#ettv -> To avoid fakes, ALWAYS check that the torrent was added by ettv[/b][/color]



[url]https://www.ettv.tv[/url]

[color=green][b]To keep us going Support us by donating Bitcoin: 3MDamEmgKepqagtQe9eEdQ3NCrWEWjhoL5[/b][/color]

[b]Screens...[/b]
[url=https://extraimage.net/image/TYho][img]https://extraimage.net/images/2017/10/21/eff30145ac6f15e1c13f61154682c0f4.th.jpg[/img][/url] ]]>
Face.Value.S01E04.Kym.Whitley.v.Donnell.Rawlings.HDTV.x264-CRiMSON[ettv] http://glodls.to/torrent.php?id=2889871 http://glodls.to/torrent.php?id=2889871 Sat, 21 Oct 2017 16:27:43 +0100 TV Et TV Shows


Face.Value.S01E04.Kym.Whitley.v.Donnell.Rawlings.HDTV.x264-CRiMSON


[Format]: Matroska
[Duration]: 19mn 59s
[Resolution]: 720 x 404 pixels
[Display aspect ratio]: 16:9
[Frame rate mode]: Constant
[Frame rate]: 23.976 fps


[color=green][b]#ettv -> To avoid fakes, ALWAYS check that the torrent was added by ettv[/b][/color]



[url]https://www.ettv.tv[/url]

[color=green][b]To keep us going Support us by donating Bitcoin: 3MDamEmgKepqagtQe9eEdQ3NCrWEWjhoL5[/b][/color]

[b]Screens...[/b]
[url=https://extraimage.net/image/TYhH][img]https://extraimage.net/images/2017/10/21/9cd4d495dd50876a67ed6f1b233a6aa4.th.jpg[/img][/url] ]]>
[18+ Korean] Red Bikini (2017) WEB-DL HD-RIP [650mb] http://glodls.to/torrent.php?id=2889870 http://glodls.to/torrent.php?id=2889870 Sat, 21 Oct 2017 16:20:54 +0100 Movies
[img]http://photos.hancinema.net/photos/photo862549.jpg[/img]

[img]http://www.pixsense.net/themes/latest/ssd/small/811/small-[18+Korean]RedBikini2017WEB-DLHD-RIP[650mb].MP4_snapshot_00.19.06_[2017.10.21_21.47.16].jpg[/img]

Directed by Choi Moo-yeon (???)
•Erotic •Melodrama •Romance
86min | Release date in South Korea : 2017/07/06
Synopsis
A couples' trip to Pattaya turns into hell when each others' secrets come out into the open!

Soo-jeong and Tae-hyeon decide to go abroad with Sang-jin and Ji-hyeon to celebrate Ji-hyeon's birthday. However, Ji-hyeon can't make it last minute and the three set off.
However the local tour guide tricks them into losing everything they've got. Then they meet Lizzie, who Sang-jin falls for right away. They cross the line and Soo-jeong who secretly had a crush on Sang-jin, films them quietly. She then threatens Sang-jin to tell Ji-hyeon with the video of their affair and demands he takes her in. Tae-hyeon finds out about everything and the dreamy vacation turns into hell...

[color=red][b]Screen Shot & Thumbnails:-[/b][/color]

[URL]https://www.pixsense.net/site/v/3282783#811&3282783[/URL]
[URL]https://www.pixsense.net/site/v/3282784#811&3282784[/URL]
[URL]https://www.pixsense.net/site/v/3282785#811&3282785[/URL]
[URL]https://www.pixsense.net/site/v/3282786#811&3282786[/URL]
[URL]https://www.pixsense.net/site/v/3282787#811&3282787[/URL]
[URL]https://www.pixsense.net/site/v/3282788#811&3282788[/URL]
[URL]https://www.pixsense.net/site/v/3282789#811&3282789[/URL]
[URL]https://www.pixsense.net/site/v/3282790#811&3282790[/URL]

[color=red][b]..........Please Seed After Download ............[/b][/color][/center]
]]>
[MADM-062]Crystal Eizou - When An Unhappy Wife Is Taken Over Aki Sasaki http://glodls.to/torrent.php?id=2889869 http://glodls.to/torrent.php?id=2889869 Sat, 21 Oct 2017 16:16:09 +0100 Adult XXX [center][URL=http://imagedecode.com/img-59eb71cf1f703.html][IMG]http://imagedecode.com/upload/small/2017/10/21/59eb71cf1f6ca.jpg[/IMG][/URL]
[size=4]

Crystal Eizou - When An Unhappy Wife Is Taken Over ... Aki Sasaki
Category: JAV, Asia, Interracial, BBC, Black
File size: 451.49 Mb
Duration: 02:12:45


[b]SCREENS:[/b]

[url]http://imagedecode.com/img-59eb71d9ef8b5.html[/url]
[url]https://img.yt/img-59eb71f54fca1.html[/url]

[b]SHOOT:[/b]
[url]http://imageteam.org/img-59eb7274df432.html[/url]
[/size]
[/center] ]]>
[DrunkSexOrgy - SwingingPornstars - Tainster] DSO 2007 Eurobabe Olympics- Part 5 http://glodls.to/torrent.php?id=2889868 http://glodls.to/torrent.php?id=2889868 Sat, 21 Oct 2017 16:14:27 +0100 Adult XXX
Genre :- Blowjobs, Lesbians, Wet clothes, Interracial sex, Wet babes, High heels, Hardcore, Party, Public, Face fucking, Dancing, 540p]

Screenshot :-

[url=http://imgtorrnt.in/view.php?id=I1dWJiW][color=green] http://imgtorrnt.in/view.php?id=I1dWJiW [/color] [/url]

[url=http://imgtorrnt.in/view.php?id=QBlZuyE][color=green] http://imgtorrnt.in/view.php?id=QBlZuyE [/color] [/url]

[img]http://s4.pic4you.ru/y2017/10-18/27034/6133422.jpeg[/img]


BTC Address - 1J6iRHTWiXg2Gjhg7ggtBrY87buscQ5ngB

]]>
[IKnowThatGirl - Mofos] Tiffany Watson - Tiffany Watson Under the Table (19 10 2017) http://glodls.to/torrent.php?id=2889867 http://glodls.to/torrent.php?id=2889867 Sat, 21 Oct 2017 16:09:29 +0100 Adult XXX
Genre :- [POV, All Sex, Handjob, Doggystyle, Reverse Cowgirl, Missionary, Doggystyle (Standing)] 720p

Screenshot :-

[url=http://imgtorrnt.in/view.php?id=wWf7IjS][color=green] http://imgtorrnt.in/view.php?id=wWf7IjS [/color] [/url]

[url=http://imgtorrnt.in/view.php?id=cGVU2R4][color=green] http://imgtorrnt.in/view.php?id=cGVU2R4 [/color] [/url]

[img]http://s4.pic4you.ru/y2017/10-16/27034/6131771.jpeg[/img]


BTC Address - 1J6iRHTWiXg2Gjhg7ggtBrY87buscQ5ngB

]]>
[18+ German] The Art Of Loving Story Of Michalina Wislocka (2017) http://glodls.to/torrent.php?id=2889866 http://glodls.to/torrent.php?id=2889866 Sat, 21 Oct 2017 16:09:26 +0100 Movies
[img]https://images-na.ssl-images-amazon.com/images/M/MV5BNDIyMGRiNTYtMjljZC00M2RmLTg5MmEtMjZhNzA3YjM2OGExXkEyXkFqcGdeQXVyNjQ5Njg3Nzc@._V1_QL50_SY1000_CR0,0,694,1000_AL_.jpg[/img]

Director:
Maria Sadowska
Writers:
Artur Golebiowski (story)
Krzysztof Rak (written by)
(more)
Contact:
View company contact information for The Art of Loving. Story of Michalina Wislocka on IMDbPro.
Release Date:
27 January 2017 (Poland)
Genre:
Biography | Comedy | Drama | Romance
Plot:
Michalina Wislocka, the most famous and recognized sexologist of communist Poland, fights for the right to publish her book, which will change the sex life of Polish people forever.

[color=red][b]Screen Shot & Thumbnails:-[/b][/color]

[URL]https://www.pixsense.net/site/v/3282777#811&3282777[/URL]
[URL]https://www.pixsense.net/site/v/3282778#811&3282778[/URL]
[URL]https://www.pixsense.net/site/v/3282779#811&3282779[/URL]
[URL]https://www.pixsense.net/site/v/3282780#811&3282780[/URL]
[URL]https://www.pixsense.net/site/v/3282781#811&3282781[/URL]
[URL]https://www.pixsense.net/site/v/3282782#811&3282782[/URL]

[color=red][b]..........Please Seed After Download ............[/b][/color][/center]
]]>
FakehubOriginals 17 10 21 Bambi Joli And Nikita Ricci XXX 480p MP4-TK http://glodls.to/torrent.php?id=2889865 http://glodls.to/torrent.php?id=2889865 Sat, 21 Oct 2017 16:08:45 +0100 Adult XXX
[b]Screenshots:[/b]

[url]http://imagerar.com/imgs-59eb710b0e79f.html[/url]

[url]http://imagerar.com/imgs-59eb710b07a91.html[/url]

[url]http://imagerar.com/imgs-59eb710af1e6a.html[/url]

[url]http://imagerar.com/imgs-59eb710999ddf.html[/url]

File Size : 178 MiB
Duration : 21mn 32s
Video : h264, yuv420p, 854x480p, 1024 Kbps
Audio : aac , 2 ch, stereo , 128 Kbps ]]>
Bunnyman Vengeance 2017 HDRip x264 AAC http://glodls.to/torrent.php?id=2889864 http://glodls.to/torrent.php?id=2889864 Sat, 21 Oct 2017 16:04:54 +0100 Movies

General
Format : Matroska
Format version : Version 4 / Version 2
File size : 844 MiB
Duration : 1 h 31 min
Overall bit rate : 1 294 kb/s

Video
ID : 1
Format : AVC
Format/Info : Advanced Video Codec
Format profile : High@L3
Format settings : CABAC / 4 Ref Frames
Format settings, CABAC : Yes
Format settings, RefFrames : 4 frames
Codec ID : V_MPEG4/ISO/AVC
Duration : 1 h 31 min
Bit rate : 1 200 kb/s
Width : 720 pixels
Height : 304 pixels
Display aspect ratio : 2.35:1
Frame rate mode : Constant
Frame rate : 23.976 (23976/1000) FPS
Color space : YUV
Chroma subsampling : 4:2:0
Bit depth : 8 bits
Scan type : Progressive
Bits/(Pixel*Frame) : 0.229
Stream size : 780 MiB (92%)
Writing library : x264 core 148 r2643 5c65704
Default : Yes
Forced : No

Audio
ID : 2
Format : AAC
Format/Info : Advanced Audio Codec
Format profile : LC
Codec ID : A_AAC-2
Duration : 1 h 31 min
Bit rate : 96.0 kb/s
Channel(s) : 2 channels
Channel positions : Front: L R
Sampling rate : 44.1 kHz
Frame rate : 43.066 FPS (1024 SPF)
Compression mode : Lossy
Stream size : 62.6 MiB (7%)
Default : Yes
Forced : No

[img]http://ssec.life/i/images/2017/10/21/2017-10-21_20h50_18.jpg[/img]
[img]http://ssec.life/i/images/2017/10/21/2017-10-21_20h50_30.jpg[/img]
[img]http://ssec.life/i/images/2017/10/21/2017-10-21_20h51_05.jpg[/img]
[img]http://ssec.life/i/images/2017/10/21/2017-10-21_20h53_03.jpg[/img]
[img]http://ssec.life/i/images/2017/10/21/2017-10-21_20h53_52.jpg[/img] ]]>
[MonstersOfCock - BangBros] Gina Valentina - Monster Cock Steals Gina’s Pussy (mc16180 - 15 10 2017) http://glodls.to/torrent.php?id=2889863 http://glodls.to/torrent.php?id=2889863 Sat, 21 Oct 2017 16:04:21 +0100 Adult XXX
Genre :- [Big Cock, Blowjob, Brunette, Cow Girl, Cum Shot, Dildo, Doggystyle, Facial, Hairy, Hardcore, Interracial, Latina, Missionary, Riding] 720p

Screenshot :-

[url=http://imgtorrnt.in/view.php?id=xpkTqzk][color=green] http://imgtorrnt.in/view.php?id=xpkTqzk [/color] [/url]

[url=http://imgtorrnt.in/view.php?id=w5QqOsq][color=green] http://imgtorrnt.in/view.php?id=w5QqOsq [/color] [/url]

[img]http://s4.pic4you.ru/y2017/10-15/27034/6131140.jpeg[/img]


BTC Address - 1J6iRHTWiXg2Gjhg7ggtBrY87buscQ5ngB

]]>
[Mature]Ania (35) - Horny housewife fucking and sucking http://glodls.to/torrent.php?id=2889862 http://glodls.to/torrent.php?id=2889862 Sat, 21 Oct 2017 16:02:50 +0100 Adult XXX [center][URL=http://damimage.com/img-59eb6e9344973.html][IMG]http://damimage.com/upload/small/2017/10/21/59eb6e934493a.jpeg[/IMG][/URL]
[size=4]

Ania (35) - Horny housewife fucking and sucking
Category: Mature
File size: 327 MB
Duration: 00:30:01


[b]SCREENS:[/b]

[url]http://damimage.com/img-59eb6e9e0a0ae.html[/url]
[url]https://xeimg.yt/img-59eb6ec05af8e.html[/url]

[b]SHOOT:[/b]
[url]http://imageteam.org/img-59eb6f869ea87.html[/url]
[/size]
[/center] ]]>
Antiques.Road.Trip.S15E18.HDTV.x264-DOCERE http://glodls.to/torrent.php?id=2889849 http://glodls.to/torrent.php?id=2889849 Sat, 21 Oct 2017 16:00:50 +0100 TV
[url=https://www.sparrowpics.com/image/kbFon][img]https://www.sparrowpics.com/images/2017/07/04/kbFon.png[/img][/url]

[b]Complete name : antiques.road.trip.s15e18.hdtv-docere.mkv
Format : Matroska
Format version : Version 4 / Version 2
File size : 361 MiB
Duration : 43 min 44 s
Overall bit rate : 1 153 kb/s
Encoded date : UTC 2017-10-21 15:54:08
Writing application : mkvmerge v9.6.0 ('Slave To Your Mind') 64bit
Writing library : libebml v1.3.4 + libmatroska v1.4.5

Video
ID : 1
Format : AVC
Format/Info : Advanced Video Codec
Format profile : High@L3.1
Format settings, CABAC : Yes
Format settings, ReFrames : 5 frames
Format settings, GOP : M=4, N=40
Codec ID : V_MPEG4/ISO/AVC
Duration : 43 min 44 s
Bit rate : 1 024 kb/s
Width : 720 pixels
Height : 404 pixels
Display aspect ratio : 16:9
Frame rate mode : Constant
Frame rate : 50.000 FPS
Color space : YUV
Chroma subsampling : 4:2:0
Bit depth : 8 bits
Scan type : Progressive
Bits/(Pixel*Frame) : 0.070
Stream size : 320 MiB (89%)
Writing library : x264 core 152 r2851 ba24899
Encoding settings : cabac=1 / ref=5 / deblock=1:0:0 / analyse=0x3:0x113 / me=hex / subme=8 / psy=1 / psy_rd=1.00:0.00 / mixed_ref=1 / me_range=16 / chroma_me=1 / trellis=2 / 8x8dct=1 / cqm=0 / deadzone=21,11 / fast_pskip=1 / chroma_qp_offset=-2 / threads=6 / lookahead_threads=1 / sliced_threads=0 / nr=0 / decimate=1 / interlaced=0 / bluray_compat=0 / stitchable=1 / constrained_intra=0 / bframes=3 / b_pyramid=2 / b_adapt=1 / b_bias=0 / direct=3 / weightb=1 / open_gop=0 / weightp=2 / keyint=250 / keyint_min=25 / scenecut=40 / intra_refresh=0 / rc_lookahead=50 / rc=crf / mbtree=1 / crf=22.0 / qcomp=0.60 / qpmin=0 / qpmax=69 / qpstep=4 / ip_ratio=1.40 / aq=1:1.00
Default : Yes
Forced : No
Color range : Limited
Color primaries : BT.709
Transfer characteristics : BT.709
Matrix coefficients : BT.709

Audio
ID : 2
Format : AAC
Format/Info : Advanced Audio Codec
Format profile : LC
Codec ID : A_AAC
Duration : 43 min 44 s
Bit rate : 125 kb/s
Channel(s) : 2 channels
Channel positions : Front: L R
Sampling rate : 48.0 kHz
Frame rate : 46.875 FPS (1024 spf)
Compression mode : Lossy
Stream size : 39.2 MiB (11%)
Default : Yes
Forced : No[/b]

[url=https://www.sparrowpics.com/image/kbJ5y][img]https://www.sparrowpics.com/images/2017/07/04/kbJ5y.png[/img][/url]

[URL=https://tv.sparrowpics.com/image/FaCqs][IMG]https://tv.sparrowpics.com/images/2017/10/21/FaCqs.th.jpg[/IMG][/URL]

[URL=https://tv.sparrowpics.com/image/FacsK][b]Click To View Screenshot[/b][/URL]

[URL=https://tv.sparrowpics.com/image/FaPXX][b]Click To View Screenshot[/b][/URL]

[URL=https://tv.sparrowpics.com/image/Fak9U][b]Click To View Screenshot[/b][/URL][/center] ]]>
Chelsea S02E23 WEB x264-STRiFE http://glodls.to/torrent.php?id=2889812 http://glodls.to/torrent.php?id=2889812 Sat, 21 Oct 2017 16:00:09 +0100 TV http://www.tvrage.com/schedule.php?show_yesterday=1. ]]> Chelsea S02E23 720p WEB x264-STRiFE http://glodls.to/torrent.php?id=2889811 http://glodls.to/torrent.php?id=2889811 Sat, 21 Oct 2017 16:00:07 +0100 TV http://www.tvrage.com/schedule.php?show_yesterday=1. ]]> [LegalPorno] Luna Rival interracial anal POV (SZ1307 - 18 10 2017) http://glodls.to/torrent.php?id=2889810 http://glodls.to/torrent.php?id=2889810 Sat, 21 Oct 2017 15:59:25 +0100 Adult XXX
Genre :- [Toys, Squirt, Anal, Gape, POV, Interracial, 720p]

Screenshot :-

[url=http://imgtorrnt.in/view.php?id=o41GLeb][color=green] http://imgtorrnt.in/view.php?id=o41GLeb [/color] [/url]

[url=http://imgtorrnt.in/view.php?id=5KNem7U][color=green] http://imgtorrnt.in/view.php?id=5KNem7U [/color] [/url]

[img]http://s4.pic4you.ru/y2017/10-18/27034/6133498.jpeg[/img]


BTC Address - 1J6iRHTWiXg2Gjhg7ggtBrY87buscQ5ngB

]]>
Lesbea 17 10 21 Foxxi Black And Heather Vahn XXX 480p MP4-TK http://glodls.to/torrent.php?id=2889809 http://glodls.to/torrent.php?id=2889809 Sat, 21 Oct 2017 15:58:52 +0100 Adult XXX
[b]Screenshots:[/b]

[url]http://imagerar.com/imgs-59eb6ebe2b4aa.html[/url]

[url]http://imagerar.com/imgs-59eb6ebe2578b.html[/url]

[url]http://imagerar.com/imgs-59eb6ebe1f3ea.html[/url]

[url]http://imagerar.com/imgs-59eb6ebcb2b6d.html[/url]

File Size : 237 MiB
Duration : 28mn 22s
Video : h264, yuv420p, 854x480p, 1024 Kbps
Audio : aac , 2 ch, stereo , 128 Kbps ]]>
18+ Bad Class 2015 480p HDRip H264 WEB-DL http://glodls.to/torrent.php?id=2889808 http://glodls.to/torrent.php?id=2889808 Sat, 21 Oct 2017 15:58:29 +0100 Movies
[img]http://watchfreehd.net/wp-content/uploads/2017/06/qqhc7vz7ayi8.jpg[/img]

[img]http://www.pixsense.net/themes/latest/ssd/small/811/small-18+.Bad.Class.2015.480p.HDRip.H264.WEB-DL.mkv_snapshot_00.05.23_[2017.10.21_21.23.03].jpg[/img]

Directed by Han Dong-ho

With Yoon Seol-hee, Han Bit, Jeong Neom-chyeo, Kim Bo-hyeon, Kim Joon-hee, Son Ji-wan,...

Synopsis :- Ji-eun has a bad impression of men due to bad experiences with her father but her mom Hyeon-ah convinces her into getting tuition from an art student. Jeong-woo is surprised at how cold she is towards him but at the same time, there's tension between the two. Meanwhile, Hyeon-ah, who is afraid something might happen between the two, calls Jeong-woo in and suggests something but he confesses his love for Hyeon-ah instead. They have fallen into an unappropriate relationship and Ji-eun decides to give her mom a surprise.

[color=red][b]Screen Shot & Thumbnails:-[/b][/color]

[URL]https://www.pixsense.net/site/v/3282761#811&3282761[/URL]
[URL]https://www.pixsense.net/site/v/3282762#811&3282762[/URL]
[URL]https://www.pixsense.net/site/v/3282763#811&3282763[/URL]
[URL]https://www.pixsense.net/site/v/3282764#811&3282764[/URL]
[URL]https://www.pixsense.net/site/v/3282765#811&3282765[/URL]
[URL]https://www.pixsense.net/site/v/3282766#811&3282766[/URL]
[URL]https://www.pixsense.net/site/v/3282767#811&3282767[/URL]

[color=red][b]..........Please Seed After Download ............[/b][/color][/center] ]]>
Autodesk Mudbox 2018 Update 1 x64 incl + Patch http://glodls.to/torrent.php?id=2889807 http://glodls.to/torrent.php?id=2889807 Sat, 21 Oct 2017 15:58:27 +0100 Apps
[b]Autodesk Mudbox 2018[/b].1 If you need a professional program that will allow you to make high-quality digital
sculpture modeling in skilled hands, then it will be harder to find a tool than Autodesk Mudbox, plus the
software will allow you to perform 3D coloring of 3D models. Naturally, first of all, the development will
be very interesting for people involved in high-level modeling, as well as artists who specialize in textures,
now in the hands of these cool guys and girls will be all to create a digital 3D object and 2D sketches, and
you can do it almost imitating work with real clay or paints.
I ask all to pay attention that the program Mudbox download which I offer for free on our site, will also
allow creating unevenness maps, normal maps, substitution maps and so on. If you take alternative developments
in this area, they certainly are and I think who in this topic rotates perfectly knows about them, but this development
has a plus, you will get a really convenient, understandable and functional interface, so if you are new to this field,
portable days so five can already understand what's what and start working.

[img]https://area.autodesk.com/dynamic_resources/area_blog_post_content/2835/html_content/11505527662.jpg[/img][/center] ]]>
AudioRetoucher + patch http://glodls.to/torrent.php?id=2889806 http://glodls.to/torrent.php?id=2889806 Sat, 21 Oct 2017 15:57:58 +0100 Apps
AbyssMedia [b]AudioRetoucher [/b]If it so happened that the whole has a composition in which it is
necessary to change the tempo and tone, then the AudioRetoucher program can easily cope with this problem
without leaving even a thought in your head. After starting and adding a track, you can change the sound of both
the instrument and the voice. The software can also be used to add effects, which will result in a slight acceleration
and a decrease in the tone of the artist or instrument. If you need to strengthen bass or soprano, then you will find
yourself an ally in the form of this program. After launching in a single window, there are all the settings, there
is no need to move anywhere and configure separately, it's convenient, simple, understandable, nice, in general cool.
Developer: AbyssMedia

[img]https://images.sftcdn.net/images/t_optimized,f_auto/p/20bed4ee-9b25-11e6-919b-00163ec9f5fa/645865817/audioretoucher-screenshot.png[/img][/center] ]]>
Apowersoft Screen Capture Pro 1 3 4 Full (Serial Keys) http://glodls.to/torrent.php?id=2889805 http://glodls.to/torrent.php?id=2889805 Sat, 21 Oct 2017 15:57:33 +0100 Apps
Main Features:
– Intelligible and Elegant Ribbon Interface
– Capture anything on screen
– Abundant capture modes for all needs
– Simple and advanced Ways for editing images
– Share Images to social networks in one click
– Free cloud storage for all users
– Robust Task Scheduler for Capture Screen
– Elegant and Friendly Interface
– Screenshot Anything Displayed on Screen
– Multiple Capture Modes to Choose from
– Built-in Simple and Advanced Image Editors
– Share Images Online in One-click
– Free Cloud Storage with No Registration Required
– Create Schedule Tasks for Taking Screenshot

[img]https://www.sadeempc.com/wp-content/uploads/2016/10/Apowersoft-Screen-Capture-Pro-Serial-Key-Latest.jpg[/img][/center] ]]>
AOMEI Partition Assistant All Editions 6 5 + Keygen http://glodls.to/torrent.php?id=2889804 http://glodls.to/torrent.php?id=2889804 Sat, 21 Oct 2017 15:57:09 +0100 Apps
Technician Edition covers all the features of AOMEI Partition Assistant and enjoys lifetime free upgrades to every latest version. One license code can be used by a single technician to register the program on PCs and servers of unlimited companies and individuals.

Top Benefits:
- One license code can be used to register the program on unlimited computers.
- Unlimited years’ subscription license with lifetime free upgrades.
- Support Server 2003, 2008 (R2), 2011, 2012 (R2), 2016 and Windows 10, Windows 8.1/8, Windows 7, Vista, XP.
- Support multiple languages: English, German, French, Italian, Spanish, Polish, Hungarian, Dutch, Turkish, and Japanese.

Change Partition Size
All the approaches below enable you to make full use of disk space without data loss

- Extend Partition Wizard: enlarge NTFS system partition without rebooting machine.
- Resize/move a partition and dynamic volume to maximize utilization of storages.
- Merge Partitions: combine two partitions into a bigger one, or add unallocated space to any partition.
- Allocate Free Space: move free disk space from one partition to another.
- Split Partition: divide a large partition into two or more for storing different data.

Transfer System & Data
Easily upgrade to a smaller size but faster processing speed SSD

- Migrate OS to SSD: migrate Windows installation and applications to SSD or HDD.
- Disk Copy Wizard: upgrade storages without reinstalling system and applications.
- Partition Copy Wizard: copy a partition from one hard drive to another for data backup.

Change Disk & Partition Type
Solve hardware or software compatibility problems without deleting data

- Convert to MBR/GPT Disk: convert GPT to MBR disk, and convert MBR to GPT disk.
- Dynamic Disk Converter: convert dynamic to basic disk, and convert basic to dynamic disk.
- Convert to Primary/Logical: convert logical to primary partition, and convert primary to logical partition.
- NTFS to FAT32 Converter: convert NTFS to FAT32 partition, and convert FAT32 to NTFS partition.

Useful & Magic Utilities
All the tools below you may not use frequently, but you will find them useful if needed

- Dynamic Disk Manager: resize, move, shrink, extend dynamic disk (alias Software RAID).
- Make Bootable Media: create a WinPE bootable CD or USB without installing AIK/WAIK.
- Windows To Go Creator: boot Windows 7, 8, 8.1 or 10 from USB flash drive on any computer.
- Integrate to Recovery Environment - Integrate AOMEI Partition Assistant or AOMEI Backupper into
- Windows built-in recovery environment.
- Partition Recovery Wizard: recover deleted or lost partitions from unallocated space.
- Perform partition operations via command line to realize multitasking and scripting.
- Configure the same partition layout for lots of computers with "Quick Partition".
- Wipe Partition/Hard Drive: permanently erase data to ensure private files cannot be retrieved.
- Partition Alignment: improve the performance of partition, especially for SSD.


[img]https://s30.postimg.org/yjsvogbg1/Zne_TIyb0dd5_Je_Cgap7_BAu_V675_SVj1_CS0.png[/img][/center] ]]>
Ant Download Manager Pro 1 6 3 Build 44268 Full (Crack) http://glodls.to/torrent.php?id=2889803 http://glodls.to/torrent.php?id=2889803 Sat, 21 Oct 2017 15:56:41 +0100 Apps [b]
Ant Download Manager i[/b]s a quick downloader Internet content with support for video downloads! function:Full

integration with the most popular web browsers: Internet Explorer 8+, Mozilla Firefox 32 +, Google Chrome 31+ and

their clones (Pale Moon, Opera, Vivaldi, Slimjet, ComodoDragon, etc.).Built-in video grabber allows you to download

video from any video sites and services.

When capturing video, AntDM always offers audio extraction from video and convert it to MP3 format.a handy feature

preview video files in the main list of downloads.Multi-channel loading, Drag & Drop function.Built-in analyzer will

allow links to explore the static pages, reveal hidden links to download files.Support network protocols HTTP (S),

FTP (S). Media reports F4M, M3U8, RTMP (x).Support for HTTP proxies (S), FTP, SOCKS 4,5.Supports the most popular

premium link generators (Debrids).All downloaded files are saved in folders by categories according to their MIME

type.

Ant Download Manager integrates with browsers Internet Explorer, Mozilla Firefox, Google Chrome, support Websites

protocols, (HTTP), FTP-servers (FTP), the downloads by category and download speed, multi-language support, animated

preview of the downloaded item list.
The program has a convenient user interface. Layout and the menu is standard, the right window displays the

downloaded files, you can switch on the left menu, just above the button responsible for downloading video from

YouTube, adding a new file, delete the file, the file load control unit and settings button. Russian support is

available, setting a minimum and they are standard for this type of program, as a whole looks like IDM and externally

and in terms of settings, although programs of this category are similar to almost all.

Main characteristics:
• Built-in video grabber browser (YouTube, Vimeo, DailyMotion, etc ..)
• Multi-threaded download
• Accelerator download speed
• Downloads by category
• Downloads list, complete information, sorting options
• Capturing links from the clipboard
• Integration in browser
• Multi-lingual support
• HTTP support, HTTPS, FTP protocols
• Portability
• Drag and drop (Drag and Drop)
• User-friendly interface is beautiful
• No ads

Full Pro Version
Not limited download speed
No flow restrictions on downloading
Download video from browser pages using videoknopki
Convert Media Files

[b]Whats New:
updated Debrids service for new Alldebrid API
fixed memory leaks for download Method 2
fixed video and audio files' download from GoogleDrive and some other file services
fixed Internet Explorer addon
fixed DailyMotion parser
refactoring and bug fix
[/b]
[img]https://i2.wp.com/www.4realtorrentz.com/wp-content/uploads/2017/06/ant1.jpg[/img][/center] ]]>
Ant Download Manager Pro 1 6 3 Build 44268 + Patch http://glodls.to/torrent.php?id=2889802 http://glodls.to/torrent.php?id=2889802 Sat, 21 Oct 2017 15:56:09 +0100 Apps [b]
Ant Download Manager [/b]integrates with browsers Internet Explorer, Mozilla Firefox, Google Chrome, support Websites protocols, (HTTP), FTP-servers (FTP), the downloads by category and download speed, multi-language support, animated preview of the downloaded item list.
The program has a convenient user interface. Layout and the menu is standard, the right window displays the downloaded files, you can switch on the left menu, just above the button responsible for downloading video from YouTube, adding a new file, delete the file, the file load control unit and settings button. Russian support is available, setting a minimum and they are standard for this type of program, as a whole looks like IDM and externally and in terms of settings, although programs of this category are similar to almost all.

Main characteristics:
• Built-in video grabber browser (YouTube, Vimeo, DailyMotion, etc ..)
• Multi-threaded download
• Accelerator download speed
• Downloads by category
• Downloads list, complete information, sorting options
• Capturing links from the clipboard
• Integration in browser
• Multi-lingual support
• HTTP support, HTTPS, FTP protocols
• Portability
• Drag and drop (Drag and Drop)
• User-friendly interface is beautiful
• No ads

Full Pro Version
Not limited download speed
No flow restrictions on downloading
Download video from browser pages using videoknopki
Convert Media Files

[img]https://s1.postimg.org/1grzpxftm7/lxa_ZGOPy_T9_Ak184ga_Ugz2p_KBWpcsue8_Q.jpg[/img][/center] ]]>