Login
Username:
Password:
Remember Me:
[Signup]
[Recover Account]
Friends
BTScene
Friendly site

Ale Torrenty Team
Friendly site

Anime RG
Friendly site

KaranPC
Friendly site

P2PDL.com
Friendly site

Free Tutorials & Courses
Friendly site
Torrent Details For "Cardboard Gangsters 2017 HDRip x264 AC3"

Cardboard Gangsters 2017 HDRip x264 AC3

To download this torrent, you need a BitTorrent client: Vuze or BTGuard
Download this torrent
Download using Magnet Link

Direct Download - no client needed

Download Faster - High Speed Download

Health:
Seeds: 650
Leechers: 252
Completed: 2,454 
Last Checked: 11-10-2017 22:03:35

Uploader Reputation points : 496
External: Torrent




Write a Review for the Uploader:   0   Say Thanks with one good review:


Details
Name:Cardboard Gangsters 2017 HDRip x264 AC3
Description:

General
Format                                   : Matroska
Format version                           : Version 4 / Version 2
File size                                : 672 MiB
Duration                                 : 1 h 32 min
Overall bit rate                         : 1 017 kb/s

Video
ID                                       : 1
Format                                   : AVC
Format/Info                              : Advanced Video Codec
Format profile                           : [email protected]
Format settings                          : CABAC / 4 Ref Frames
Format settings, CABAC                   : Yes
Format settings, RefFrames               : 4 frames
Codec ID                                 : V_MPEG4/ISO/AVC
Duration                                 : 1 h 32 min
Bit rate                                 : 900 kb/s
Width                                    : 720 pixels
Height                                   : 304 pixels
Display aspect ratio                     : 2.35:1
Frame rate mode                          : Constant
Frame rate                               : 23.976 (23976/1000) FPS
Color space                              : YUV
Chroma subsampling                       : 4:2:0
Bit depth                                : 8 bits
Scan type                                : Progressive
Bits/(Pixel*Frame)                       : 0.171
Stream size                              : 587 MiB (87%)
Default                                  : Yes
Forced                                   : No

Audio
ID                                       : 2
Format                                   : AC-3
Format/Info                              : Audio Coding 3
Format settings, Endianness              : Big
Codec ID                                 : A_AC3
Duration                                 : 1 h 32 min
Bit rate mode                            : Constant
Bit rate                                 : 128 kb/s
Channel(s)                               : 2 channels
Channel positions                        : Front: L R
Sampling rate                            : 44.1 kHz
Frame rate                               : 28.711 FPS (1536 SPF)
Bit depth                                : 16 bits
Compression mode                         : Lossy
Stream size                              : 84.6 MiB (13%)
Service kind                             : Complete Main
Default                                  : Yes
Forced                                   : No





YouTube Video:
Category:Movies
Language:English  English
Total Size:672.47 MB
Info Hash:C36FB1D07F12D9FE742F115E64C3FEE8739151BA
Added By:MovieFreak
Date Added:10-10-2017 23:22:19
Torrent Status:Unverified Torrent


Ratings:Not Yet Rated (Log in to rate it)


Tracker:
udp://tracker.leechers-paradise.org:6969/announce

This Torrent also has backup trackers
URLSeedersLeechersCompleted
udp://tracker.leechers-paradise.org:6969/announce6423286
udp://tracker.coppersurfer.tk:6969/announce6226226
udp://tracker.pirateparty.gr:6969/announce6225226
udp://tracker.mg64.net:2710/announce5724154
http://mgtracker.org:2710/announce000
udp://tracker.leechers-paradise.org:6969/announce6423286
http://tracker.mg64.net:6881/announce000
http://announce.xxx-tracker.com:2710/announce000
udp://tracker.zer0day.to:1337/announce000
udp://tracker.opentrackr.org:1337/announce5930243
udp://9.rarbg.to:2710/announce5620202
udp://eddie4.nl:6969/announce6423286
udp://tracker.coppersurfer.tk:6969/announce6226226
udp://p4p.arenabg.com:1337/announce5424153
http://ipv4.tracker.harry.lu/announce469166


File List: 





Comments
No comments still posted